#TITLE:Walker Texas Ranger;
#SUBTITLE:(TV Theme);
#ARTIST:Chuck Norris;
#TITLETRANSLIT:;
#SUBTITLETRANSLIT:;
#ARTISTTRANSLIT:;
#CREDIT:;
#BANNER:Chuck-Norris-Photograph-C10039396.jpg;
#BACKGROUND:Chuck%20Norris%20Fanclub!.jpg;
#LYRICSPATH:;
#CDTITLE:C;
#MUSIC:Walker texas ranger - Theme Song.mp3;
#OFFSET:-4.890;
#SAMPLESTART:4.890;
#SAMPLELENGTH:12.000;
#SELECTABLE:YES;
#BPMS:0.000=103.000;
#STOPS:;
#BGCHANGES:;
// cache tags:
#FIRSTBEAT:0.000;
#LASTBEAT:58.417;
#SONGFILENAME:Songs/Music V.I.P ^_^/WalkerTexasRanger/Walkertexaxranger.sm;
#HASMUSIC:1;
#HASBANNER:1;
#MUSICLENGTH:44.550;
// end cache tags

//---------------dance-single - RoundHouse Kick----------------
#NOTES:
     dance-single:
     RoundHouse Kick:
     Challenge:
     15:
     1.000,1.000,1.000,0.337,1.000,718.000,117.000,15.000,0.000,33.000:
0001
0000
0000
0000
1000
0000
1000
0000
0010
0000
0000
0000
0001
0000
0000
0000
1000
0000
1000
0000
0010
0000
0000
0000
0000
0000
0000
0010
0100
0000
0000
0000
1000
1000
0000
0000
0010
0000
0000
0100
0100
0000
0000
0000
0000
1000
0000
0000
1001
0000
0000
0010
0000
0000
0000
0000
0100
0000
0000
0000
0010
0000
0000
0001
0000
0000
0100
0000
0000
0000
0000
0000
0001
0000
0000
0100
0100
0000
0010
0000
1000
0000
0000
0000
0001
0000
0000
0000
0100
0000
0100
0000
0000
1000
0000
0000
0000
0000
0000
0010
0001
0000
0000
0000
0000
0000
0000
0000
0011
0000
0000
0000
0000
0000
0000
0000
0000
0000
0000
0000
0110
0000
0000
0000
0001
0000
0000
0000
0000
1000
0000
0000
0000
0000
0000
0010
0001
0000
0000
0000
0100
0001
0000
0000
1000
0000
0000
0100
0001
0000
0010
0000
0000
0000
0000
0000
1100
0000
0000
0101
0000
0000
0000
0000
0000
0010
0000
0000
1000
0000
0000
0001
0000
0000
0000
0000
0001
0100
0000
0000
0000
0000
0000
0000
0000
0000
1001
0000
0010
0100
0000
0000
,
0010
0000
0000
0000
0000
0000
0000
0000
0000
1000
0000
0000
0100
0000
0000
0001
0001
0000
0010
0000
0000
1000
0000
0000
0101
0000
0000
0000
0000
0000
0100
0000
0001
0000
0000
0000
1000
0000
0000
1001
0000
0000
0000
0000
0100
0000
0000
0000
0010
0000
0000
0100
1000
0000
1001
0000
0000
0000
0000
0000
0100
0000
0000
0010
0000
0000
0100
0000
1000
0000
0000
0000
1001
0000
0000
0000
0001
0000
0100
0000
0000
0000
0000
0000
0010
0000
0000
0000
0001
0000
0010
0000
0000
1000
0000
0000
0110
0000
0000
0001
0001
0000
1000
0000
0000
0000
0000
0000
0110
0000
0000
0010
0000
0000
0000
0000
0000
1000
0000
0000
0011
0000
0000
0100
0000
0000
0000
0000
0000
1000
0000
0000
0110
0000
0000
0000
0100
0000
0010
0000
0000
0000
0000
0000
0001
0000
0000
0000
1000
0000
0010
0000
0000
0001
0000
0000
0010
0000
0000
0000
0000
0000
0100
0000
0000
0000
0000
0000
0010
0000
0000
0000
0000
0000
1000
0000
1000
0000
0000
0000
0010
0000
0000
0100
0000
0000
0000
0000
1000
0000
0000
0000
,
0010
0000
0000
1000
0000
0000
0100
0000
0010
0000
0000
0000
0000
0000
0000
1000
0000
0000
0001
0000
0101
0100
0000
0000
0010
0000
0000
0000
0000
0000
1000
0000
0000
0000
0000
0000
0011
0000
0000
0000
0000
0000
0110
0000
0000
0000
0000
0000
1001
0000
0000
0000
1100
0000
0000
0000
0000
0100
0000
0000
0001
0000
0000
1000
0000
0000
0000
0000
0100
0000
0000
0000
0011
0000
0000
0100
1000
0000
1000
0000
0000
0000
0000
0000
0001
0000
0000
0000
0100
0000
0000
0000
0000
0100
0000
0000
0000
0000
0000
1001
0010
0000
0000
0000
0000
0000
0000
0000
0101
0000
0000
0010
0100
0000
0000
0000
1000
1000
0000
0000
0001
0000
0000
0100
0110
0000
0000
0000
0001
0000
0000
0000
1000
0000
0000
0000
1000
0000
0000
0000
0000
0100
0000
0000
0010
0000
0000
0001
0101
0000
1000
0000
0000
0000
0000
0000
1010
0000
0000
0100
0000
0000
0000
0000
0001
1001
0000
0000
0110
0000
0000
0000
0000
0000
0010
0000
1000
0100
0000
0000
1000
0000
0000
0000
0011
0000
0010
0000
0000
0000
0000
0000
,
0100
0000
0000
1000
1001
0000
0010
0000
0000
0000
0000
0000
0001
0000
0000
0010
0000
0000
0001
0000
1010
1000
0000
0000
0000
0000
0000
0001
0100
0000
1000
0000
0000
0000
0000
0000
0001
0000
0000
0001
0000
0000
0100
0000
0010
0000
0000
0000
1000
0000
0000
0001
0100
0000
0100
0000
0001
0000
0000
0000
0001
0000
0000
0100
1000
0000
0010
0000
0000
0000
0000
0000
0100
0000
0000
0000
0011
0000
0001
0000
1000
1000
0000
0000
0000
0000
0000
0000
0001
0000
0010
0000
0110
0100
0000
0000
1000
0000
0000
0000
0010
0000
1000
0000
0000
0010
0000
0000
1000
0000
0000
0000
0010
0000
0010
0000
0000
0000
0000
0000
1000
0000
0000
0000
1010
0000
0000
0000
0000
0010
0000
0000
1000
0000
0000
0000
0101
0000
0001
0000
0000
0100
0000
0000
0000
0000
0000
0000
0101
0000
0001
0000
0000
0100
0000
0000
0000
0000
0000
0000
0100
0000
0001
0000
0001
0000
0000
0000
0100
0000
0000
0000
0010
0000
0010
0000
0100
0000
0000
0000
1000
0000
0000
0000
1000
0000
0000
0000
0010
0100
0000
0000
,
0001
0000
0000
0000
0100
0000
0010
0000
0001
1000
0000
0000
1100
0000
0000
0000
0000
0000
1001
0000
0110
0000
0000
0000
0000
0000
0000
0000
1001
0000
0100
0000
0000
0001
0000
0000
0110
0000
0000
1000
0000
0000
0000
0000
0000
0110
0000
0000
0010
0000
0000
0000
1000
0000
1000
0000
0000
0001
0000
0000
0100
0000
0000
0010
0010
0000
0000
0000
0000
0000
0000
0000
1000
0000
0000
0001
0010
0000
0100
0000
0000
0000
0000
0000
0100
0000
0000
1000
0010
0000
0001
0000
1000
0100
0000
0000
0001
0000
0000
0010
0100
0000
0000
0000
1000
1000
0000
0000
0001
0000
0000
0100
0100
0000
0000
0000
0010
0000
0000
0000
1000
0000
0000
1010
0001
0000
0000
0000
0010
0001
0000
0000
1000
0000
0000
1000
0000
0000
0000
0000
0010
0001
0000
0000
0000
0000
0000
1000
1000
0000
0000
0000
0010
0001
0000
0000
0000
0000
0000
1000
0100
0000
0001
0000
0010
0000
0000
0000
0000
0000
0000
1000
1000
0000
0100
0000
0100
0000
0000
0000
0010
0000
0000
0000
0000
0000
0011
0000
1000
0000
0000
0000
,
0100
0000
0000
0100
0010
0000
0000
0000
0000
0000
0000
0000
1000
0000
0000
0000
0000
0000
0000
0000
0001
1000
0000
0000
0111
0000
0000
0000
0000
0000
0100
0000
1000
0010
0000
0000
0001
0000
0000
1000
0000
0000
0000
0000
0010
0001
0000
0000
0100
0000
0000
0000
0000
0000
0010
0000
1000
0000
0000
0000
1001
0000
0000
0000
0000
0000
0000
0000
0110
0101
0000
0000
0010
0000
0000
0000
0000
0000
0000
0000
0001
0000
0000
0000
0101
0000
0000
0100
0010
0000
0000
0000
1000
0010
0000
0000
1000
0000
0000
0000
0000
0000
0100
0000
0000
0000
0000
0000
0110
0000
0000
0000
0000
0000
1000
0000
0010
0000
0000
0000
1000
0000
0000
0101
0100
0000
0000
0000
0000
0000
0000
0000
1001
0000
0000
0000
1000
0000
0010
0000
0000
0000
0000
0000
0110
0000
0000
0000
0000
0000
0000
0000
0000
1010
0000
0000
1010
0000
0000
0001
0000
0000
0000
0000
0000
0100
0000
0000
1010
0000
0000
0000
1000
0000
0010
0000
0000
0000
0000
0000
0011
0000
0000
0100
1000
0000
0000
0000
0000
1000
0000
0000
,
0100
0000
0000
0000
0010
0000
0001
0000
0000
0010
0000
0000
1100
0000
0000
0000
0001
0000
1000
0000
0000
0001
0000
0000
0100
0000
0000
0010
0001
0000
0000
0000
1000
1000
0000
0000
0000
0000
0000
0000
0110
0000
0100
0000
0000
0001
0000
0000
1011
0000
0000
0000
0000
0000
0000
0000
0000
1000
0000
0000
0110
0000
0000
0000
0100
0000
0011
0000
1000
0000
0000
0000
0000
0000
0000
1000
0110
0000
0000
0000
0000
0100
0000
0000
1010
0000
0000
0000
0001
0000
0001
0000
0100
1000
0000
0000
0000
0000
0000
0000
0001
0000
0100
0000
1000
0001
0000
0000
0000
0000
0000
0000
0001
0000
1000
0000
0100
0010
0000
0000
1100
0000
0000
0000
0000
0000
1001
0000
0110
0000
0000
0000
1000
0000
0000
0000
0001
0000
0000
0000
0100
0000
0000
0000
0110
0000
0000
1000
0000
0000
0000
0000
1000
0000
0000
0000
0110
0000
0000
0000
0000
0000
0000
0000
0001
0000
0000
0000
0010
0000
0000
1000
1000
0000
0000
0000
0000
0100
0000
0000
0001
0000
0000
1000
0000
0000
0000
0000
1000
0000
0000
0000
,
0101
0000
0000
0000
0000
0000
0010
0000
0000
1000
0000
0000
1001
0000
0000
0000
0000
0000
0100
0000
0010
0000
0000
0000
1001
0000
0000
2000
0000
0000
0000
0000
0010
0000
0000
0000
0010
0000
0000
0000
0000
0000
0000
0000
0000
0000
0000
0000
0102
0000
0000
0000
0000
0000
0000
0000
0000
0010
0000
0000
3000
0000
0000
0000
0000
0000
0100
0000
0200
0000
0000
0000
1000
0000
0000
0000
0000
0000
0000
0000
0000
0010
0000
0000
0010
0000
0000
1000
0003
0000
0000
0000
0000
0010
0000
0000
0000
0000
0000
0000
0000
0000
0000
0000
0311
1000
0000
0000
0001
0000
0000
0000
0000
0000
0100
0000
0100
0000
0000
0000
0000
0000
0000
0000
0010
0000
0001
0000
0000
1000
0000
0000
0100
0000
0000
0000
0000
0000
0010
0000
0010
0000
0000
0000
1000
0000
0000
0001
0000
0000
0000
0000
0101
0100
0000
0000
0010
0000
0000
0000
0000
0000
1000
0000
0010
0001
0000
0000
0100
0000
0000
0000
1000
0000
0100
0000
0000
0000
0000
0000
1001
0000
0000
0000
0010
0000
0000
0000
0000
0001
0000
0000
,
1010
0000
0000
0000
0001
0000
0000
0000
0000
0000
0000
0000
0011
0000
0000
0000
0000
0000
0000
0000
0000
0001
0000
0000
0010
0000
0000
0000
0110
0000
0000
0000
0000
0000
0000
0000
0100
0000
0000
0000
0011
0000
0000
0000
0100
0000
0000
0000
0020
0000
0000
0100
0001
0000
0000
0000
0000
0000
0000
0000
0000
0000
0000
0001
1000
0000
0000
0000
0001
0000
0000
0000
0000
0000
0000
0031
0000
0000
0000
0000
1000
0100
0000
0000
0001
0000
0000
0000
0000
0000
0000
0000
0000
0000
0000
0000
1100
0000
0000
0001
0010
0000
0000
0000
0000
0000
0000
0000
1000
0000
0000
0001
0000
0000
0000
0000
0010
0000
0000
0000
0010
0000
0000
0001
1010
0000
0000
0000
0000
0000
0000
0000
0100
0000
0000
0001
0100
0000
0000
0000
0001
0000
0000
0000
0100
0000
0000
1000
0100
0000
0000
0000
0000
0000
0000
0000
0001
0000
0000
0000
0000
0000
0000
0000
0010
0001
0000
0000
1000
0000
0000
0000
0100
0000
0000
0000
0000
0000
0000
0000
0010
0000
0000
0000
0001
0000
1000
0000
0000
0000
0000
0000
,
0101
0000
0000
0000
0000
0000
0000
0000
0001
1100
0000
0000
0001
0000
0000
0000
0000
0000
0000
0000
0010
0000
0000
0000
0100
0000
0000
0000
0000
0000
0000
0000
0101
0000
0000
0000
0100
0000
0000
0000
0000
0000
0000
0000
0001
0100
0000
0000
0100
0000
0000
0100
0000
0000
0000
0000
0001
0100
0000
0000
0000
0000
0000
0000
1000
0000
0000
0000
0001
0000
0000
0000
0100
0000
0000
0000
0000
0000
0000
0000
1000
0000
0000
0000
0101
0000
0000
0000
0000
0000
0000
0000
1000
0000
0000
0000
0101
0000
0000
0000
0000
0000
0000
0000
0000
0000
0000
0000
1001
0000
0000
0100
0000
0000
0000
0000
0000
0000
0000
0000
1001
0000
0000
0010
0000
0000
0000
0000
0000
1000
0000
0000
1000
0000
0000
0000
0010
0000
0010
0000
0000
0000
0000
0000
1000
0000
0000
0000
0010
0000
0010
0000
0000
0000
0000
0000
1000
0000
0000
0000
1010
0000
0010
0000
0000
0000
0000
0000
1000
0000
0000
0000
1010
0000
0010
0000
0000
0000
0000
0000
1000
0000
0000
0010
1010
0000
0000
0000
0000
0000
0000
0000
,
1000
0000
0000
0010
0010
0000
0000
0000
1000
0000
0000
0000
0000
0000
0000
1010
0010
0000
0000
0000
1000
0000
0000
0000
0000
0000
0000
1000
0010
0000
0000
0000
0000
0000
0000
0000
1000
0000
0000
1000
0010
0000
0001
0000
1000
0000
0000
0000
0000
0000
0000
0010
0001
0000
0000
0000
0000
1000
0000
0000
0000
0000
0000
0000
0000
0000
0001
0000
0011
0000
0000
0000
1000
0000
0000
0000
0000
0000
0000
0000
0001
0001
0000
0000
0000
0000
0000
0000
0100
0000
0010
0000
0000
0000
0000
0000
0101
0000
0000
0000
0000
0000
0001
0000
0010
0000
0000
0000
0001
0000
0000
0000
0000
0000
0010
0000
0000
0001
0000
0000
0011
0000
0000
0000
0000
0000
0000
0000
0000
0011
0000
0000
0110
0000
0000
0000
0000
0000
0000
0000
0000
0110
0000
0000
0010
0000
0000
0000
0001
0000
0001
0000
0000
0010
0000
0000
0010
0000
0000
0000
0100
0000
0010
0000
0000
0000
0000
0000
0010
0000
0000
0000
0100
0000
0000
0000
0000
0010
0000
0000
0000
0000
0000
0000
0000
0000
0100
0000
1000
0000
0000
0000
,
0010
0000
0000
1000
0000
0000
0000
0000
0000
0010
0000
0000
0010
0000
0000
0000
0100
0000
0000
0000
0000
0001
0000
0000
0101
0000
0000
0000
0000
0000
0000
0000
0100
0100
0000
0000
1011
0000
0000
1000
0000
0000
0000
0000
1000
0001
0000
0000
1000
0000
0000
0000
0010
0000
0000
0000
0000
0000
0000
0000
0100
0000
0000
0010
0001
0000
0000
0000
0000
0000
0000
0000
0001
0000
0000
0000
0010
0000
0000
0000
0100
0000
0000
0000
0000
0000
0000
0000
0010
0000
0000
0000
0000
0010
0000
0000
0100
0000
0000
0000
0001
0000
0000
0000
0100
0000
0000
0000
0001
0000
0000
0000
0000
0000
0101
0000
0000
0000
0000
0000
1010
0000
0000
0010
0000
0000
0100
0000
0000
2000
0000
0000
0001
0000
0000
0000
0000
0000
0000
0000
0000
0001
0000
0000
0001
0000
0000
0000
0000
0000
0000
0000
0100
0010
0000
0000
3000
0000
0000
0000
0000
0000
0001
0000
0100
0100
0000
0000
0000
0000
0000
0000
1000
0000
0200
0000
0010
0000
0000
0000
1000
0000
0000
0000
0000
0000
0000
0000
0000
0000
0000
0000
,
1010
0000
0000
0000
0000
0000
0000
0000
0000
1300
0000
0000
0010
0000
0000
0000
1000
0000
0100
0000
0001
0010
0000
0000
0000
0000
0000
2000
0100
0000
0000
0000
0000
0000
0000
0000
0101
0000
0000
0000
0000
0000
0000
0000
0000
0000
0000
0000
0001
0000
0000
0002
0000
0000
0000
0000
0000
0000
0000
0000
0000
0000
0000
0000
0010
0000
0000
0000
0000
0000
0000
0000
0000
0000
0000
0000
0010
0000
3000
0000
1000
0000
0000
0000
0000
0000
0000
1000
0000
0000
0000
0000
0110
0000
0000
0000
0000
0000
0000
0113
1000
0000
0000
0000
0010
0000
0000
0000
1000
0000
0000
0000
0100
0000
0010
0000
1001
0000
0000
0000
0002
0000
0000
1000
0000
0000
0000
0000
0100
0200
0000
0000
0000
0000
0000
0010
1000
0000
0000
0000
0010
0000
0000
0000
0000
0000
0000
0003
0000
0000
1000
0000
1001
0002
0000
0000
1000
0000
0000
0000
0000
0000
0000
0000
0010
0000
0000
0000
1000
0000
0000
0010
0000
0000
0000
0000
0010
1000
0000
0000
0000
0000
0000
0000
0000
0000
0000
0000
0010
0000
0000
0000
,
0300
0000
0000
0000
0000
0000
0000
0000
0000
0200
0000
0000
0010
0000
0000
0000
0000
0000
0013
0000
0000
0000
0000
0000
0010
0000
0000
0000
0000
0000
0000
0000
1000
0000
0000
0000
0001
0000
0000
1000
0000
0000
0000
0000
0000
0000
0000
0000
0001
0000
0000
0010
1000
0000
0000
0000
0010
0000
0000
0000
0000
0000
0000
0000
0000
0000
0001
0000
1000
1000
0000
0000
0001
0000
0000
0000
0000
0000
0000
0000
0010
0310
0000
0000
0000
0000
0000
0000
1000
0000
0000
0000
0010
2000
0000
0000
0100
0000
0000
0000
0000
0000
0000
0000
0000
0000
0000
0000
0011
0000
0000
0000
0000
0000
0000
0000
0000
0000
0000
0000
0001
0000
0000
0000
0000
0000
0000
0000
0000
0000
0000
0000
3100
0000
0000
0100
0001
0000
0001
0000
0000
0000
0000
0000
0000
0000
0000
0000
0101
0000
0000
0000
0000
0001
0000
0000
0100
0000
0000
0000
0000
0000
0000
0000
0101
0000
0000
0000
0000
0000
0000
0002
0010
0000
0200
0000
0000
0010
0000
0000
0010
0000
0000
0000
0000
0000
0000
0000
0000
0000
0000
0000
,
0000
0000
0000
0000
0010
0000
0000
0000
0000
0300
0000
0000
0003
0000
0000
0000
1000
0000
0000
0000
0001
0000
0000
0000
0011
0000
0000
0000
0000
0000
1000
0000
1000
0000
0000
0000
0001
0000
0000
0000
0000
0000
0001
0000
0110
0000
0000
0000
1000
0000
0000
0000
0001
0000
0100
0000
0000
0010
0000
0000
0000
0000
0000
0000
0000
0000
0000
0000
0110
1000
0000
0000
1000
0000
0000
0001
0000
0000
0000
0000
0101
0010
0000
0000
0000
0000
0000
0000
1000
0000
1000
0000
0010
0000
0000
0000
0010
0000
0000
0001
0101
0000
0000
0000
1000
0000
0000
0000
0000
0000
0000
1001
0001
0000
0000
0000
1000
0000
0000
0000
0000
0000
0000
0000
0000
0000
0000
0000
0000
0000
0000
0000
0000
0000
0000
0000
0000
0000
0000
0000
0000
0000
0000
0000
0000
0000
0000
0000
0000
0000
0000
0000
0000
0000
0000
0000
0000
0000
0000
0000
0000
0000
0000
0000
0000
0000
0000
0000
0000
0000
0000
0000
0000
0000
0000
0000
0000
0000
0000
0000
0000
0000
0000
0000
0000
0000
0000
0000
0000
0000
0000
0000
;
